Megablast Wont Charge

Puma Soundchuck is one-of-a-kind Bluetooth speaker system that is weather resistant, adjustable, and portable — designed to keep up with your active lifestyle on and off the golf course. One thing, if the system has been turned off for, oh say, 5 - 10 minutes it won't matter. This allows you to charge the Megaboom 3 without having to faff around with a microUSB cable. The large cylindrical speaker is built to be used anywhere …. TORY LANEZ Forever 29. It works with my Megablasts and it's convenient. I ended up with around 5 hours of nonstop usage before there was any sound degradation, then finally it died. com Answer: Your UE MEGABOOM can sometimes get into a state where it doesn’t charge. Top-performing wireless speakers have high-quality sound, won't take up too much space and have useful features like the ability to charge your phone. CHARGE syndrome — Classification and external resources Ear form characteristic of a person with Charge (Héraldique) — Héraldique L écu Partitions Armes composées Le champ Couleur (Émaux et. Most people who have have owned a laptop for a while have encountered this problem. Why is it that your phone's battery seems to get worse over time? At first it might have power to spare as you snuggle into bed at the end of the night. Solved: My laptop won't charge my battery have uninstalled complaint control method battery from device manager and restarted the PC it won't charge - 6082350. Is this normal?. Now with Amazon Alexa built-in, you and your crew can blast tunes, discover new music, order takeout, and more, with just the power of your voice. UE MEGABLAST delivers 360 degrees sound and at much higher volumes than many others on the market. Bluetooth connectivity is one of the easiest ways to make a wireless connection. CEGMA defines a set of 458 conserved protein families that occur in a wide range of eukaryotes, based on a subset of the KOGs database. Ultimate Ears Megaboom 3 vs. 11 OZEPOISE + YAEPXSVS Start on level 15. The MEGABLAST is the larger of the two, and it packs a correspondingly larger battery. Especially the JBL Charge 4, an updated version of the popular JBL Charge 3, is a high-quality Bluetooth speaker that has been built to withstand all weather conditions. Will this sequel. POST MALONE feat DABABY Enemies 31. BMF - BGW Rtg: 77 0 horse(s) from this race have won since. The little orange light that tells me that the battery is charging, below the touch pad, is turned on and it stays that way but the battery isn't. Xenon II Megablast (Image Works1 15. A cell in a battery has two electrodes, the anode, and the cathode. MEGABLAST is our most powerful portable Wi-Fi/Bluetooth speaker with big, bassy 360-degree sound and hands-free voice control. некая сохраняющаяся величина в. cc the right kind of noises. It can be incredibly frustrating when your iPhone won't charge. Megablast (メガブラスト) is a 1989 horizontally scrolling shooter released in arcades in 1989 by Taito in Europe and Japan. SUMMER WALKER feat USHER Come thru 33. Play and charge kit = crap. The JBL Charge 3, Charge 4 and JBL Flip 4 have a lot to offer. Sporting the same repositionable glue like its predecessor, the Extreme notes won’t crumple or peel off due to moisture, making them perfect for use not only on the outside but even inside the fridge, or in the shower to remind bae to clean up the residual hair after a bath. Gaana App Not Working On Wifi. wav Peak level 98. 2018/10/26 4:05pm PDT Oct 26, 2018. Alternatives: Unless you subscribe to Amazon Music Unlimited (you get a three-month trial with the purchase of a Blast or Megablast), I think most people will use this as a very good portable. dnn_maupin. The battery may not charge. You should try to capture or kill any French kings or princes you can, its better to bribe them than fight them. See full list on tomsguide. With any of these plans, you won’t pay any interest, provided you pay the full balance of their purchase before the end of the plan. Island Code. to ask an amount of money for something, especially a service or activity: 2. Megablast Wont Charge. 3 % Track quality 100. 0 % Test CRC EFC0710C Copy CRC EFC0710C Accurately ripped (confidence 3) [53B7EFB0] Copy OK Track 6 Filename H:\FLAC\Various - Fabric 08 Radioactive Man - 06 - In-Out (Imatran Voima). When plugged in (either to the wall direct or on its - 48818. [Update: Confirmation + starting fresh] Google Photos Live Albums are limited to 10,000 photos, won't add more after that. UE says a full charge can last 15+ hours, and if you download and connect to the UE App, you can always see how much charge you have left, so you're not stuck with a dead speaker at the wrong time. JAYJAY (makossa. In many models this is not possible due to the charge controller needing communication with the computer controller via the other pins, in some. How to reset a BLAST or MEGABLAST that won't turn ON WARNING This procedure can permanently damage your speaker and should ONLY be used if the speaker won't turn ON. Ultimate Ears POWER UP makes charging super easy. Charge it up With a battery life of up to 15 hours you won't have to charge often, but when you do the charging dock (sold separately) will come in handy. For over 20 years, Inpress has been covering every. Mine just says"recharge battery" but won't take a charge. The Revolve+ is the largest of Bose’s portable offerings, and was released in. How to reset a Ultimate Ears Megablast with Amazon Alexa that wont power up. Move is durable and drop-resistant, and features the built-in capabilities of Google Assistant and Amazon Alexa. Wirelessly charge your BLAST, MEGABLAST, BOOM 3 and MEGABOOM 3 speakers with POWER UP Charging Dock. family man) and I have the stock head unit. The sound is comparable with Amazon echo 2nd Gen. Book Summary: Lieutenant Eve Dallas explores the hidden connections among friends and lovers, enemies and strangers in this thriller in the #1 New York Times bestselling In Death series. The system will adjust the performance to match the power available/. It means you can grab-and-go fully charged whenever the moment strikes. With any of these plans, you won’t pay any interest, provided you pay the full balance of their purchase before the end of the plan. Factory reset clears all custom settings, presets, Wi-Fi settings, and Bluetooth pairings from your speaker. Simply pop your Megablast onto the wireless charging base, swap the D-Ring for the special inducting D-Ring provided with the Power Up and place it down to provide charge. The Ultimate Ears Megablast is UE's loudest and smartest speaker. Having trouble charging your device? You may be having charging problems because of a broken charging port or liquid damage! Try these 5 simple steps for when your device won\x27t charge. Alternatives: Unless you subscribe to Amazon Music Unlimited (you get a three-month trial with the purchase of a Blast or Megablast), I think most people will use this as a very good portable. Surprisingly, it. Anyway I wont bitch too much about that, it’s still a bit of a barg compared to UK prices, worked out about £2. I'm a former Apple employee, and during my time in the Apple. In-store pickup & free shipping. Not charging. Your movies every part will seem so realistic. How to recover rechargeable batteries that wont charge in a smart charger. You have to hire mercenaries, without them you probely wont be able to win all 4 battles, hire all you can. The Basic Local Alignment Search Tool (BLAST) finds regions of local similarity between sequences. Factory reset clears all custom settings, presets, Wi-Fi settings, and Bluetooth pairings from your speaker. Amazon: amazon. com Answer: Your UE MEGABOOM can sometimes get into a state where it doesn’t charge. ca for a wide assortment of wireless & wifi speakers. I don't care if I get banned from there forums for posting this but I'm going to reply to every single forum post I can find with this information. He needs to be in melee range to cast and hit you with peck. MICHELLE The Rain 26. Learn more Updated October 8, 2020 We tested 10 new. I will however gurn about the 10% service charge for opening two beers. Yes, it actually does this thing. In the rare times that your. battery wont charge. Why is it that your phone's battery seems to get worse over time? At first it might have power to spare as you snuggle into bed at the end of the night. Ultimate Ears BOOM 3 Altoparlante Wireless Bluetooth Portatile, Magic Button, Bassi Profondi‎‎, Impermeabile, Controllo Musica One Touch, Multidispositivo, Batteria di fino a 15 ore, Raggio 45m, Rosso: Amazon. A Macbook Pro already has a built-in speaker. Recently, some users reported that photos won’t upload on Windows due to they are saved in HEIC format. Finally, Unplug the UE Wonderboom and Turn it On. PSA: Non-iPhone 12 Models Charge Super Slowly With MagSafe Charger MacRumors attracts a broad audience of both consumers and professionals interested in the latest technologies and products. Get quality sound on the go with Move, the battery-powered portable smart speaker from Sonos. I drive a 2011 Kia Optima (LX, forgive me. Leave it on the dock and it'll be ready to grab and go for your next outing. 11/22/2017 by Stephen Lee. Users can try to solve the issues themselves. your path through the game was predetermined and you just shot what came in your way) whereas this game is a fully 3D FPS game where you can go wherever you want. Playback 2019. Open the tool using the icon on your desktop, or from the Application folder on your Mac. At the start of the fight, run/back peddle to the wall directly behind you and face where Dippy will come from. The inCharge 6 patented design allows to charge any portable device from. Adjusts how escape pods are processed at stations. A charging problem can occur due to a temporary software crash. It was a game effort and the form out of that race has stacked up well, with the winner and third-placed Wild Planet running the quinella in the G3. The Megablast is IP67 rated, meaning water- and dust-proofing, so it's a fine option to fill your pool house with tunes or to entertain on the rear deck of your yacht, without any worries if it. There are a few problems that could be occurring - your device could be refusing to charge altogether, or it could. - tubedogg Aug 24 '13 at 21:44. com — amazon. Home » Catalog » Зарядка » Wall chargers » Wall charger "C11 Smart" EU plug single USB C11 Smart single USB charger EU plug universal compact wall charging adapter sets with 1m Lightning. it: Elettronica. perform some of the. And the ' fuse ' way of Lockdown. wav Peak level 98. Still nothing. 99) is less than half the price, but won't deliver the loud level of outdoor entertainment you'll want. After a month-long trial, I determined UE Megaboom 3 is the best wireless speaker because of its brilliant design, wireless charging, and superior high-volume performance. The JBL Charge 4 has Bluetooth 4. The first boxfight map to have charge shotuns! Only works in creative "Play". Compra Ultimate Ears Megablast Altoparlante Wireless Portatile, Wi-Fi e Bluetooth, Bassi Potenti, Controllo-Voce ‎Amazon Alexa, Impermeabile, Batteria 16 h, Collega 8 Speaker, Vivavoce, Controllo app, Giallo. Wirelessly charge your BLAST, MEGABLAST, BOOM 3 and MEGABOOM 3 speakers with POWER UP Charging Dock. Kostenlose Lieferung! 2 Jahre Garantie! Freie Rücksendung innerhalb von 30 Tagen!. What should you do when your Roomba won't charge at all? Get help with quick solutions in this article at times if your Roomba does not hold a charge. Amazon Music Unlimited webplayer gives you the ability to stream music from any computer anywhere. One or two players can control space fighters assigned to deal with an alien invasion using incredible firepower through eight stages. He wont do anything important in life3. Charge it up With a battery life of up to 15 hours you won't have to charge often, but when you do the charging dock (sold separately) will come in handy. You can also save $50 on. I don't care if I get banned from there forums for posting this but I'm going to reply to every single forum post I can find with this information. Here are the approximate full charge (from 0 percent battery power) times for each model using the Power Up: Blast: 2. 50 each so I bought three total!! All matte which is great since they wont smudge onto my face masks and they are such good quality!!! I found the three colors for my skin tone but they had at least 12-15 different colors so you should be able to find a shade just for you!!!. 11 OZEPOISE + YAEPXSVS Start on level 15. This unique USB charger station neatly organizes your desktop as you can charge four devices to this dock. Pros: -Great sound quality -Amazing features like Hearthrough -Comfortable Fit -Wont Fall out easily -Great. ; Hands-free Amazon Alexa built-in with the ability to ask Alexa to blast tunes, discover new music, crank the volume, find new restaurants. The Megablast however, now that UE has included woofers, sounds fantastic. допускаемая нагрузка additional charge — спец. It’s classified as chypre-floral, following the steps of similar sharp and strong classics. Hold down the VOL DOWN button and the POWER button for a few seconds until you hear a sound. Bluetooth is a very simple connection in most cases because it's direct from one device to another. It can be incredibly frustrating when your iPhone won't charge. JBL Charge 3 Wrap-Up: What's Best for You?. Ultimate Ears POWER UP is a charging dock for MEGABLAST and BLAST and is sold separately. 0 % Test CRC EFC0710C Copy CRC EFC0710C Accurately ripped (confidence 3) [53B7EFB0] Copy OK Track 6 Filename H:\FLAC\Various - Fabric 08 Radioactive Man - 06 - In-Out (Imatran Voima). TINASHE Throw a fit 30. Once I got 4-8 stacks of the debuff, I positioned them to where I could use Shockwave on all of them. If you have a Blast or Megablast that's in regular use, and what's the point of buying one if you are not going to use it, then this power-up is essential. Pirulee, a kid who wants to ride this train, Tremendo - "I took the liberty of driving this train full speed ahead to crush a language barrier, see the Resultado and spread the word!. Following on from the UE Boom – the successful original social speaker – the UE Megaboom offers the signature 360-degree sound and improved audio quality. I won't go into those because many of those don't even have games for every letter. I tested 4 of these docks and they all do this. You won’t need a trip to the service center just because you can’t pair your favorite headset. Scottish Rogue and More Than Exceed won't be too far away. Some springs actualy bounce you all the way out of the level you're on, but only a select few make you warp forwards, and even then alot of the times, it's useless (like a warp to the next level in a key level long before you have a chance to get the key) or counter productive (a warp to the next level right in front of the level exit- which. La nouvelle version de MAME vient de débarquer selon le planning habituel, ce qui devient rare ces derniers temps. Let us look at some of the reasons and solutions for Android phone or tablet won't charge or charge If the charger and the cable are a single unit then check for signs of physical damage on the cable. iPad Not Charging? 3 easy ways to charge a phone without a charger. The Alexa functionality is also slightly limited at this stage – it won't access Spotify, for example. kr ‎2020‎년 ‎6‎월 ‎23‎일 ‎오늘, ‏‎오후 5:05:20. These holds of funds are called authorization holds and. The only noticeable difference between the Boom and the Megablast is the latter’s increased size. Today I have spent TWO HOURS on Apple support trying to get. Because I'm going to tell you that while the Good-Guy Blastah is functioning well it has it's limitations. The last thing is that, unless you purchase the charging dock ($40), you have to turn the speaker upside down to listen and charge it at the same time. inCharge 6 features both charge and sync, allowing to quickly transfer your data from portable devices to computers. Now with Amazon Alexa built-in, you and your crew can blast tunes, discover new music, order takeout, and more, with just the power of your voice. How to reset a BLAST or MEGABLAST that won't turn on or charge WARNING: This procedure can damage your speaker and should ONLY be used if the speaker won't turn ON. If your phone just stops charging, even when it's plugged in, it doesn't mean it's time to shop for a new one. That one strips in manuals and manuals removably over the free virtual music. It's a good thing that Charge 4 can connect to the newest JBL speakers like Xtreme 2, Boombox and etc. Outside of the raid use the Group Finder and create a Custom group in the Premade Groups and log out. Hence, Apple has yet again released a new sequence of actions to Hard Reset iPhone 8 and iPhone 8 Plus Phones. Read on for something interesting 1) For me, the problem is only with SOME USB 3. How to Put a Computer in Pairing Mode. Amazon Music Unlimited webplayer gives you the ability to stream music from any computer anywhere. UPDATE: the charge is going up, but it doesn't say it's charging One easy way to test if it's the phone or the charger is to try a different charging cable. YK OSIRIS Shakira 27. The Beats won't disappoint those who are more into the idea of the brand than the build and audio. Alternatives: Unless you subscribe to Amazon Music Unlimited (you get a three-month trial with the purchase of a Blast or Megablast), I think most people will use this as a very good portable. Kostenlose Lieferung! 2 Jahre Garantie! Freie Rücksendung innerhalb von 30 Tagen!. UE Wonderboom speaker powered OFF, top view, showing the -Power- button circled. WIRE- LESS EFFORT- LESS Kiss goodbye to old school wires. 8 AAEPZIPA Won't take damage from shots and collisions. I guess I just need more patience with playing the games. 4 starts because this dock is a little expensive. Then turn it back on. Amazon Echo Studio ($200). Here are the approximate full charge (from 0 percent battery power) times for each model using the Power Up: Blast: 2. When you buy through links on our site, we may earn an affiliate commission. Multiple microphones with beam-forming technology and noise cancellation are housed inside for an easy far-field voice recognition and control experience. The setup process is almost exactly the same, with the Ultimate Ears app connecting the speaker to your Wi-Fi network and logging into your Amazon account. Vision spinner 2 wont charge. cc the right kind of noises. Beats Pill 2. inCharge 6 features both charge and sync, allowing to quickly transfer your data from portable devices to computers. The initial charge took quite a long time, and was not fully charged from the factory. WIRE- LESS EFFORT- LESS Kiss goodbye to old school wires. You will not be charged for incomplete orders. Welcome to Pocket-lint, for the latest electronic product reviews, including news on gadgets, digital cameras, home cinema, audio, cars and mobile phone. Enjoy music for up to 24 hours without missing a beat. This is the exact same problem I have had. It is oversized, has a full outside pocket, a handle strap and a large shoulder strap as well as a ventilated pocket to let your grip breathe and best of all its $2 less than the others because we want to help you by supporting our company! The charge will only be $8. 4 starts because this dock is a little expensive. Not only does the. Sometimes, the reason why your iPhone isn't charging is because there simply isn't a firm enough Make sure all charging components are securely plugged in. Visit charge4me. That one strips in manuals and manuals removably over the free virtual music. EASY SETUP AND CONNECTION OPTIONS FOR YOUR LOGITECH SPEAKER SYSTEMS. The case will charge to 100% just fine, but the pods themselves will not no matter how long I leave them. Remember, the problem only occurs 1 out of 10 - 20 times that you do it, not all the time. Jump on Wi-Fi or any mobile hotspot to enjoy the convenience of portable, voice-controlled music from just. If you own a set of UE Boom 2 or Megaboom speakers by Ultimate Ears, then you will now be able to control them with your voice, as both Bluetooth speakers have received an update enabling voice. After about 10 hours of use at low and moderate volume, the Megaboom 3 still had 77 percent of its. Bluetooth is just one of the wireless technologies that comes packed into your iOS devices and Macs. I have a similar problem on my Asus Z97-A motherboard, but I have been able to narrow down the problem. I could've swore I unplugged it from the car but when I went to charge the battery I had found I left it plugged in. Finally, Unplug the UE Wonderboom and Turn it On. Surprisingly, it. After 15 minutes in certain circumstances, such as when the volume of the audio input is low, the power will automatically turn off. But it probably won’t be: the pedigree is there from the first game, and the fact Microsoft, publishing partners with the team (though not outright owners – Moon retains its independence), has offered a hands-off, take-your-time approach to the development process… well, it’s all making / wfmag. it would say Plugged in, not charging. SUMMER WALKER feat USHER Come thru 33. The Blast is meant to last for 12 hours on a single charge, while the Megablast is supposed to last for 18 hours. It works with my Megablasts and it's convenient. It was a game effort and the form out of that race has stacked up well, with the winner and third-placed Wild Planet running the quinella in the G3. Learn vocabulary, terms and more with flashcards, games and other study tools. Still, rumors claim that you won’t find this feature in any upcoming iPhone 12 model, and it seems that Apple fans will have to wait until next year’s iPhone 13 to get 120Hz refresh rate displays. The Black Friday sales season is here! The prices shown below are the best available now, though you may need to buy quickly as some deals will sell out. This unique USB charger station neatly organizes your desktop as you can charge four devices to this dock. LAYTON GREENE I love you 23. It still says its charging when i move my mouse over the battery icon. Thank you for sharing this info with me, sir. The MEGABLAST is the larger of the two, and it packs a correspondingly larger battery. While the claimed range is usually limited to around 10m our testers found the figure to be much larger, in straight line tests achieving up to 30m as well as in tests where there were obstructions such as a brick wall or solid core doors where our tester comfortably played music more than 10m. BOOM 3 is a great way to get Ultimate Ears BOOM portable audio for under $150, and the virtually indestructible portable speaker can be completely customized for just $30 more. Australian Authorities Charge Woman Over Darkweb Bitcoin Drug Buys: 4: Bitcoin Won’t Settle Below 8000 Now: 4: New York Today: Living on Bitcoin: 4: Bitcoin And Ethereum To Rise By A Certain Margin Only – Bitcoin USD uses blockchain for international transfers: 4: 3 Altcoins Likely to Outperform Bitcoin for the Week of April 16: 4. When i plug the usb in the screen just brightens but it wont charge. Hold down the VOL DOWN button and the POWER button for a few seconds until you hear a sound. It does have a bug though! If you’re playing audio at more than a low volume when you put the speaker on the dock, it won’t charge! If the audio is low or off it will charge and you can turn the volume up and it will keep charging. Just throw it on the dock and your speaker starts charging immediately. However this years festivities have, for obvious reasons been cancelled, but that won't stop us from strapping on our lederhosen and and dancing on our table tops (spilled beer is mandatory for the authenticity factor) and enjoying from the. it: Elettronica. IPad won't charge, or charges slowly? We'll help you work out if the plug, cable or Lightning (or USB-C) port is at fault, and how to fix common charging and battery problems - or get Apple to repair or. Their cables are 1. Finally, Unplug the UE Wonderboom and Turn it On. Problems are caused by reduced charging power, software or hardware issues, incorrect adapters. How to recover rechargeable batteries that wont charge in a smart charger. Ue Megaboom 3 Specs Watts. Not megablast, though. Try cleaning the charging port. We actually prefer it this way, because after all the smart assistants on phones (Siri, Google Assistant) tend to be better. Tribit's XSound Go speaker is a solid budget. Ok, I won't link anything fancy, I will just tell you the best strategy that I came up with. Definitely ready for the outdoor and whatever life throws at it. I want to download some songs on to my cd "bootleg" syle for free with no passwords. This is not a malfunction. 3amps with all cells at 3. battery wont charge. It means you can grab-and-go fully charged whenever the moment strikes. Ultimate Ears Megaboom 3 Tragbarer Bluetooth-Lautsprecher, 360° Sound, Satter Bass, Wasserdicht, Staubresistent & Sturzfest, One-Touch-Musiksteuerung, 20-Stunden Akkulaufzeit - night black/schwarz: Amazon. After working fine for almost a month, they suddenly stopped taking any kind of charge. You should try to capture or kill any French kings or princes you can, its better to bribe them than fight them. Learning, knowledge, research, insight: welcome to the world of UBC Library, the second-largest academic research library in Canada. - tubedogg Aug 24 '13 at 21:44. UPDATED - CHARGE SHOTGUN by LUCKY_DETLIXX. On top of that, it's fairly safe to say that JBL Charge 4 is a more popular bluetooth speaker, based on its 10,000+ reviews. In the NPCs category. Browse Podcasts. If the speaker does not turn on, charge the speaker by connecting the AC adaptor to a wall outlet. To get your UE MEGABOOM back to a normal charging state, do the following: Connect your speaker to the charger and leave it connected for a few seconds. Having trouble charging your device? You may be having charging problems because of a broken charging port or liquid damage! Try these 5 simple steps for when your device won\x27t charge. Ultimate Ears Megaboom 3 vs. I tried scraping stuff out but it doesnt even look like theres stuff in it but when I go to push the charger in it doesnt sit all the way in. Your movies every part will seem so realistic. 3 Years Ago Today. Just holla at MEGABLAST to select tracks, playlists, pause and skip songs, crank the volume, and more, with just the power of your voice. 2 A224 - AFRICANDO*martina A1687 - AFRIKA BAMBAATAA & FAMILY*the decade of darkness A227*pupunanny A228*afrika bambaataa. Ultimate Ears Wonderbooms 2 Altavoz Inalámbrico, Graves Profundos, Sonido Envolvente de 360°, Impermeable, Conexión de 2 Altavoces para Sonido Potente, Batería de 13 h, color Azul: Logitech: Amazon. You can also charge whilst listening. 5mm aux­in port Tripod mount insert Micro USB port Charge LED WEATHER DOOR D–RING MICRO–USB POWER Integrated weather door Removable D­Ring Recharge UE BOOM 2 Use the included power protects the 3. 12 OZEPOISE + GPEPXSVI Start on level 20. UE says a full charge can last 15+ hours, and if you download and connect to the UE App, you can always see how much charge you have left, so you're not stuck with a dead speaker at the wrong time. Sporting the same repositionable glue like its predecessor, the Extreme notes won’t crumple or peel off due to moisture, making them perfect for use not only on the outside but even inside the fridge, or in the shower to remind bae to clean up the residual hair after a bath. of it going you can disconnect the. Press and hold the VOLUME and SOURCE knobs at the same time for 7 seconds until both the SOLO and MULTI indicators are lit. Kostenlose Lieferung! 2 Jahre Garantie! Freie Rücksendung innerhalb von 30 Tagen!. It comes with IPX7 waterproof certification, robust build quality, low weight and 20 hours of battery life, which are features that ensure the portability and durability of. vid – I use a multiport desktop charger to charge my Megaboom. Obviously it is a battery powered speaker so you wont get bass response like a regular speaker where power management is not an issue, but it will sound great on most music styles. You have to hire mercenaries, without them you probely wont be able to win all 4 battles, hire all you can. Amazon Echo Studio ($200). PSA: Non-iPhone 12 Models Charge Super Slowly With MagSafe Charger MacRumors attracts a broad audience of both consumers and professionals interested in the latest technologies and products. 3 Authors and contributors 1. How to reset a Ultimate Ears Megablast with Amazon Alexa that wont power up. Aromatics Elixir is the oldest perfume from the house of Clinique, created in 1975. charge: Определение charge: 1. 5 % Track quality 100. (Press home and power at the same time, hold it down for several. How to reset a BLAST or MEGABLAST that won't turn ON WARNING This procedure can permanently damage your speaker and should ONLY be used if the speaker won't turn ON. com My Megaboom would only work while plugged in. SUMMER WALKER feat USHER Come thru 33. Does not use any missile pylons. The Monster Zone Control app combines the Monster Rockin’ app feat…. Powerbeats 3 Won't Charge. Still nothing. Ultimate Ears POWER UP makes charging super easy. Upgrading ships is imo the best way to spend early money, the large amount of energy allows you to spam megablast and psion wave (keep them upgraded) and gives you loads of survivability to just rush through the early levels. Respuesta:1. After working fine for almost a month, they suddenly stopped taking any kind of charge. I flashed my phone with Rolis 4. But once charged the battery life has been great. IPTV site is they provide fresh IPTV links in the form of m3u. How to reset a BLAST or MEGABLAST that won't turn ON WARNING This procedure can permanently damage your speaker and should ONLY be used if the speaker won't turn ON. 0, and updated the pKa values used for the Isoelectric point calculation on amino acid sequences; Added counts for common amino acid groups on both amino acid and protein-coding nucleotide documents. Sporting the same repositionable glue like its predecessor, the Extreme notes won’t crumple or peel off due to moisture, making them perfect for use not only on the outside but even inside the fridge, or in the shower to remind bae to clean up the residual hair after a bath. If your speaker won't turn on, the tool will still work, however. Here's how to figure out why your iPhone won't charge, and how to fix the problem. Bluetooth is a very simple connection in most cases because it's direct from one device to another. 49MB: Timmy P – When We Connect (Qubiko Remix)[Clean] 5A: 124: 06:38: 15. Ultimate Ears BOOM 3 Altoparlante Wireless Bluetooth Portatile, Magic Button, Bassi Profondi‎‎, Impermeabile, Controllo Musica One Touch, Multidispositivo, Batteria di fino a 15 ore, Raggio 45m, Rosso: Amazon. I won't go into those because many of those don't even have games for every letter. Australian Authorities Charge Woman Over Darkweb Bitcoin Drug Buys: 4: Bitcoin Won’t Settle Below 8000 Now: 4: New York Today: Living on Bitcoin: 4: Bitcoin And Ethereum To Rise By A Certain Margin Only – Bitcoin USD uses blockchain for international transfers: 4: 3 Altcoins Likely to Outperform Bitcoin for the Week of April 16: 4. Both Bluetooth speakers feature a new design and a physical button for playlist control. My echo dot in the next room does respond. Это добываемый и продано на черном рынке. I could've swore I unplugged it from the car but when I went to charge the battery I had found I left it plugged in. In the NPCs category. The Megablast is better than most of these speakers, but the price stings. Simply pop your Megablast onto the wireless charging base, swap the D-Ring for the special inducting D-Ring provided with the Power Up and place it down to provide charge. supply and USB cable in port and Micro USB mount. Leave it plugged in whenever you use it near an outlet. Get yourselft he quickcharge kit instead, or a set of rechargable Energizer batteries. Top-performing wireless speakers have high-quality sound, won't take up too much space and have useful features like the ability to charge your phone. Ultimate Ears Power Up Wireless Charging Dock for Ultimate Ears BLAST & MEGABLAST $25. de: Audio & HiFi. I think I have a similar problem that a lot of people have been facing over the years. So if your devices can't speak a common Bluetooth language, they won’t be able to connect. How to reset a Ultimate Ears Megablast with Amazon Alexa that wont power up. 0 because it’s slightly better. 3 % Track quality 100. Here are the approximate full charge (from 0 percent battery power) times for each model using the Power Up: Blast: 2. This is not a malfunction. Area 51 (2005) Midway Games Austin / Midway Games This is a remake of the original popular arcade game which also had a PC version released in 1996, which was a rail shooter (i. 21MB: Timmy Trumpet & Kshmr – The Prayer (Extended Mix)[Clean] 2A: 80. 0 % Test CRC EFC0710C Copy CRC EFC0710C Accurately ripped (confidence 3) [53B7EFB0] Copy OK Track 6 Filename H:\FLAC\Various - Fabric 08 Radioactive Man - 06 - In-Out (Imatran Voima). A list of all music services available on Amazon Echo appears. Mine just says"recharge battery" but won't take a charge. Battery charge issues can be due to a number of different problems. megablast 80ies remake) Check out the Beatport remix competition for a chance to get your remix on an exclusive EP, alongside some other great prizes. Some springs actualy bounce you all the way out of the level you're on, but only a select few make you warp forwards, and even then alot of the times, it's useless (like a warp to the next level in a key level long before you have a chance to get the key) or counter productive (a warp to the next level right in front of the level exit- which. The sound is comparable with Amazon echo 2nd Gen. My iPod won't turn on!!! ✓ - Forum - IPad/iPod/iPod Touch. We recommend you to do the following. UPDATED - CHARGE SHOTGUN by LUCKY_DETLIXX. It comes with IPX7 waterproof certification, robust build quality, low weight and 20 hours of battery life, which are features that ensure the portability and durability of. That being said, if you're using your BLAST or MEGABLAST as an Echo replacement and will have it plugged into the charging dock at home, that won't be a big issue. The inside of Ultimate Ears' Megablast waterproof portable Amazon Alexa speaker shows why it represents the latest in voice recognition, sound reproduction, and wireless communications systems. With Amazon's Alexa voice assistant built in, wi-fi connectivity as well as Bluetooth and the UE rugged build, it's quite the portable package. In my opinion if they want to do this an atleast viable item (Keep in mind, this is a rare item and can be found in the Angel Rooms) it should atleast have 4 room charge. Page 1: Power USB / Aux protective cover (removable) helps to protect the 3. EASY SETUP AND CONNECTION OPTIONS FOR YOUR LOGITECH SPEAKER SYSTEMS. This unique USB charger station neatly organizes your desktop as you can charge four devices to this dock. The laptop runs fine, but the battery is stuck at 0% charging. Most people who have have owned a laptop for a while have encountered this problem. Yesterday the battery ran right down I put it on charge and it just wont charge every now and again it comes up with an empty battery icon or a battery icon. TORY LANEZ Forever 29. I tried scraping stuff out but it doesnt even look like theres stuff in it but when I go to push the charger in it doesnt sit all the way in. I got it back today, and everything i've tried has failed to turn it on or charge. My explanation for this behaviour is that the induced charge increases voltage on some feedback loop (more than on other parts of the regulator), and the switching regulator pulses less power to the output, to lower the voltage – and to reach the voltage goal. Ultimate Ears is a brand known for its excellent and sturdy Bluetooth speakers and with its new Megablast it's thrown Amazon's Alexa smart assistant into the mix. This contains the original game (with tweaked features such as improved graphics and a completely rebuilt multiplayer codebase), 5 bonus levels for each race, the Millenium Expansion (which added two new weapons for the Marine and nine official new multiplayer levels), and Prima's Official Strategy Guide. Solved: Hi, wonder if anyone can help. I will however gurn about the 10% service charge for opening two beers. It lacks analogue controls and only has a single. charge: Определение charge: 1. Dell Black Friday Audio Deals Sneak Peek: Save on headphones, speakers, soundbars & more. The bold, brassy and 360° sound of the Ultimate Ears Portable Bluetooth Speakers is unforgettable. догрузка reactivity charge — спец. Escape pods won't be unloaded at stations with no police presence, or at pirate stations. The large cylindrical speaker is built to be used anywhere …. HomePod is a breakthrough high-fidelity speaker. The Revolve+ is the largest of Bose’s portable offerings, and was released in. 1 kHz sampling) frequency transmission range. After a month-long trial, I determined UE Megaboom 3 is the best wireless speaker because of its brilliant design, wireless charging, and superior high-volume performance. ) is a fictional Japanese-American fighting game, identical as the official game, but with more characters& themes but no echo or Mii fighters, except for in Mob Smash or Spirit Battles, no start-up or end lag as well as no sweetspots or sourspots& only 1 ending in Adventure Mode. This contains the original game (with tweaked features such as improved graphics and a completely rebuilt multiplayer codebase), 5 bonus levels for each race, the Millenium Expansion (which added two new weapons for the Marine and nine official new multiplayer levels), and Prima's Official Strategy Guide. ca for a wide assortment of wireless & wifi speakers. 0 readers do work, some HDs are temperamental about when they will work) - this is all very weird. Another reason for phones not to charge normally or. Wirecutter is reader-supported. My Megablast (1 year 2 months old) won't hold it's charge. Solved: My laptop won't charge my battery have uninstalled complaint control method battery from device manager and restarted the PC it won't charge - 6082350. The Move is physically very big (at 24 centimetres in height, it's one of the tallest portable speakers on the market, a shade taller, even, than UE’s huge Megablast). Just pull open the weather door, plug in your phone via the USB port, and charge while the dancefloor's still bumpin?. My CX CAS will not charge. So JBL Charge 4, while being a cheaper option, tends to get more favorable ⭐ reviews than the $180 Ultimate Ears Megablast, as seen on the chart below. Multiple microphones with beam-forming technology and noise cancellation are housed inside for an easy far-field voice recognition and control experience. If the port or the connector become wet, then it can be a problem. JIDENNA Tribe 28. Moreover, you can use the power strip to connect your Mac or other computers. It still says its charging when i move my mouse over the battery icon. It definitely looks good, but the smart purchase is the UE Boom. We recommend you to do the following. Both help you multitask with Siri. And where else will you get Austrian Gosser? Apart from Austria. To accuse = to say someone is guilty but without any particular evidence. If you want Delirius an epic item like the Godhead or Megablast, make Delirius a follower that will change bosses every room you enter. The Megaboom 3 can be turned on and off via its app. Their cables are 1. Pirulee, a kid who wants to ride this train, Tremendo - "I took the liberty of driving this train full speed ahead to crush a language barrier, see the Resultado and spread the word!. UE says a full charge can last 15+ hours, and if you download and connect to the UE App, you can always see how much charge you have left, so you're not stuck with a dead speaker at the wrong time. 79 using MADos DCT3 /DCT4 code generator. Find the spine of the UE megaboom (long rubber piece running vertically down the speaker). My S7 Edge battary ran out , and when i connected the charge , the screen just displayed the white lightning bolt and won't charge or do anything. You won't be disappointed with the value you get from this Mid level Gearbox racquet. So don't worry, you wont be a. After this time, the battery may lose the ability to charge or to hold a charge for substantial periods of time. It doesn't really matter if the 1050 Transformer has power on or off, it 'Might' happen if plugged into the 1050. Pros: -Great sound quality -Amazing features like Hearthrough -Comfortable Fit -Wont Fall out easily -Great. Bluetooth is a very simple connection in most cases because it's direct from one device to another. Get a pry tool to take off the spine. 2 which is fine but I would have preferred Bluetooth 5. The Ultimate Ears Power Up charging dock is designed to work with the Blast, Megablast, Boom 3, and Megaboom 3 speakers and each model takes slightly different times to charge on the Power Up. Yes, it actually does this thing. You change the locking screw from black to silver and then you can stand the speaker on the dock for charging so it is always ready for use. 5mm aux­ reveals standard tripod via the Micro USB port. My S7 Edge battary ran out , and when i connected the charge , the screen just displayed the white lightning bolt and won't charge or do anything. The performance says it all. Charging Time:Time in Charging the Earbuds——1-2H, Time in Charging the Battery Case——2H. Premium-Sound von JBL. Added in World of Warcraft: Battle for Azeroth. FREE DELIVERY. The battery life is. Use the massive 20,000mAh battery and dual charge out to charge your external devices anytime and keep music rocking. View More Reviews. Adjusts how escape pods are processed at stations. And it doesn’t add a ton of functionality. The system will adjust the performance to match the power available/. Upgrading ships is imo the best way to spend early money, the large amount of energy allows you to spam megablast and psion wave (keep them upgraded) and gives you loads of survivability to just rush through the early levels. MICHELLE The Rain 26. It does in another,when the charger is plugged in the phone will not turn off. Hi my g751 wont charge past 85% recently. WHAT'S NEW AT PANDORA? Podcasts on the Web. And where else will you get Austrian Gosser? Apart from Austria. 60MB: Timbaland X Benaiah’s Amapiano – Give It To Me (Dj Allan Moombah Edit)[Dirty] 1A: 113: 05:27: 12. Just pull open the weather door, plug in your phone via the USB port, and charge while the dancefloor's still bumpin?. However this years festivities have, for obvious reasons been cancelled, but that won't stop us from strapping on our lederhosen and and dancing on our table tops (spilled beer is mandatory for the authenticity factor) and enjoying from the. However, in Biopython and bioinformatics in general, we typically work directly with the coding strand because this means we can get the mRNA sequence just by switching T → U. If your phone just stops charging, even when it's plugged in, it doesn't mean it's time to shop for a new one. Jbl clip 3 has been charged but won't power up. Overall the charging period is less than 2 hours and it charges very well, a small palpatating glow means it is charging. "Press and hold" the "Volume up(+)", "Volume down(-)" and "Bluetooth" button. It works with my Megablasts and it's convenient. WHAT'S NEW AT PANDORA? Podcasts on the Web. The electric charge influence other electric charges with electric force and influenced by the other charges with the same force in the opposite direction. Introducing the JBL Charge 4 portable Bluetooth speaker with full-spectrum, powerful sound and a built-in power bank to charge your devices. The initial charge took quite a long time, and was not fully charged from the factory. CHARGE OUT: HYPERBOOM is the party powerhouse that even gives your phone a boost. To wash, use warm soapy water. They use lots of elaborately animated transitions with bright colors, swooshing sound effects and musical cues to mesmerize viewers, just as slot machines in Vegas use such things to mesmerize gamblers. 4 starts because this dock is a little expensive. Briefly press the “-“ (volume down), “+” (volume up) and small. The Megablast however, now that UE has included woofers, sounds fantastic. Recently, some users reported that photos won’t upload on Windows due to they are saved in HEIC format. Aromatics Elixir is the oldest perfume from the house of Clinique, created in 1975. UPDATE: the charge is going up, but it doesn't say it's charging One easy way to test if it's the phone or the charger is to try a different charging cable. Definitely recommend!. It is a tough durable cylindrical portable Bluetooth speaker that provides 360-degree sound and is IP67 rated which means. Not only does the. Same problem. WIRE- LESS EFFORT- LESS Kiss goodbye to old school wires. Ultimate Ears is a brand known for its excellent and sturdy Bluetooth speakers and with its new Megablast it's thrown Amazon's Alexa smart assistant into the mix. Surprisingly, it. Compra Ultimate Ears Megablast Altoparlante Wireless Portatile, Wi-Fi e Bluetooth, Bassi Potenti, Controllo-Voce ‎Amazon Alexa, Impermeabile, Batteria 16 h, Collega 8 Speaker, Vivavoce, Controllo app, Giallo. догрузка reactivity charge — спец. Sometimes it gets dust and dirt in there, and it won't charge properly. UE says the speaker can play for 20 hours on a full charge, and that might be conservative. Filename H:\FLAC\Various - Fabric 08 Radioactive Man - 05 - Honour (Depth Charge). Now with Amazon Alexa built-in, you and your crew can blast tunes, discover new music, order takeout, and more, with just the power of your voice. How to revive dead 6V, 12V batteries that won't charge. Another reason for phones not to charge normally or. 8V one for the memory or the core voltage vreg. With Amazon's Alexa voice assistant built in, wi-fi connectivity as well as Bluetooth and the UE rugged build, it's quite the portable package. All fixed! Worked a treat for me :) - Logitech UE MegaBoom. Boom 3 priced at $149 and MegaBoom 3 priced at $199. Ultimate Ears Megablast. I ended up with around 5 hours of nonstop usage before there was any sound degradation, then finally it died. Dell Black Friday Audio Deals Sneak Peek: Save on headphones, speakers, soundbars & more. The bold, brassy and 360° sound of the Ultimate Ears Portable Bluetooth Speakers is unforgettable. es: Electrónica. Why would you cut off her extraordinary ovation. UE Boom 3 and UE MegaBoom 3 revealed at IFA 2018. Will this sequel. Ultimate Ears Megaboom 3 vs. Then turn it back on. Learn more Updated October 8, 2020 We tested 10 new. ) 78 Palace Magic Monsters, Desacr. Hello all! My laptop charger has finally stopped working. Your movies every part will seem so realistic. Island Code. Frequent use of the reset procedure is NOT recommended. Предмет из коллекции средств передвижения. BMF - BGW Rtg: 77 0 horse(s) from this race have won since. Vinyl Collection - Free ebook download as Excel Spreadsheet (. › my battery wont detect. Multiple microphones with beam-forming technology and noise cancellation are housed inside for an easy far-field voice recognition and control experience. 1 kHz sampling) frequency transmission range. Full product description, technical specifications and customer reviews from BT Business Direct. Alexa can be used to control light bulbs, on/off switches, dimmer switches, thermostats, locks, and Scenes configured with SmartThings. It offers 12 hours of battery life on a charge, so you won't have to worry about it running out of. When put on charge the red light on top only stays on for a few seconds. plug stays solid white at all times even when not plugged in. of it going you can disconnect the. 77 Shrine pack size, 75 cold resist, endurance charge per sec Clear time: 8:47 with item rarity gem on 77 Shipyard pack size, monster variety, poison on hit Clear time: 6:42 with item rarity gem on(3:05 rich ver. svt program Antonio Ghislanzoni genre - Musical Actor - Nicola Luisotti liked It - 28 Vote Undoubtedly one of the most beautiful voices. How to reset a Ultimate Ears Megablast with Amazon Alexa that wont power up. Just holla at MEGABLAST to select tracks, playlists, pause and skip songs, crank the volume, and more, with just the power of your voice. Recently, some users reported that photos won’t upload on Windows due to they are saved in HEIC format. Learn vocabulary, terms and more with flashcards, games and other study tools. Does not use any missile pylons. ROS to charge clear over last 50m. There are 4 different models but all 4 models will charge all UE Boom Speakers that use USB connector like picture. My S7 Edge battary ran out , and when i connected the charge , the screen just displayed the white lightning bolt and won't charge or do anything. ‎Control your Monster Outdoor Speakers with the all-in-one Monster Zone Control mobile app. For Honor Warden Shoulder Charge. Leave it on the dock and it'll be ready to grab and go for your next outing. Another reason for phones not to charge normally or. Book Summary: Lieutenant Eve Dallas explores the hidden connections among friends and lovers, enemies and strangers in this thriller in the #1 New York Times bestselling In Death series. The Bullfrog lets you stream Bluetooth audio from as far as 100-feet away, or connect directly to the charging USB for up to 20 hours of playback on a single charge. Cancel Post comment. Where the Charge 4 pulls ahead in terms of features is with its ability to charge your phone via USB while you listen to music. I only have chargers that I purchased from Verizon. Introducing the JBL Charge 4 portable Bluetooth speaker with full-spectrum, powerful sound and a built-in power bank to charge your devices. It’s classified as chypre-floral, following the steps of similar sharp and strong classics. It does in another,when the charger is plugged in the phone will not turn off. 0 Speaker - Red (MH832B/A) at great prices. A micro-USB charge port sits on its bottom. Wireless devices like Bluetooth headsets or Wi-Fi keyboards provide convenient connection to your small business's PCs without the clutter of an extra cord. Use the massive 20,000mAh battery and dual charge out to charge your external devices anytime and keep music rocking. perform some of the. The Ultimate Ears Power Up charging dock is designed to work with the Blast, Megablast, Boom 3, and Megaboom 3 speakers and each model takes slightly different times to charge on the Power Up. Hello I recently bought a 20000mAh Dual USB Power Bank Case Kit 6X 18650 (Power Bank) and I tried to charge my phone (Samsung galaxy S4), but it doesn't seem to charge UNLESS something else is. It still won't work no matter how long I leave it charging, though the white light is still flashing as normal. NAWA says that 1000km range could become the norm, with charging times cut to 5 minutes to get to 80 per cent. Throw it in a bag or toss in a suitcase to bring it on vacation with you. Now one of the big reasons why you would purchase this over the JBL Xtreme, Sony XB40, or most other competitors like the Bose Soundlink Revolve Plus or the UE Megablast, the Onyx Studio 4 beats them both in the bass department. Adjust settings, switch input sources, sync EZ-Play and TWS speakers, and change things up on the fly, all from your compatible smart device. However, you’ll find some difficulties to choose between these outstanding products. The best Ultimate Ears phone number with tools for skipping the wait on hold, the current wait time, tools for scheduling a time to talk with a Ultimate Ears rep, reminders when the call center opens, tips and shortcuts from other Ultimate Ears customers who called this number. uk — amazon. The best part is that it supports Alexa, which means dad can get his most pressing questions answered anywhere, anytime. How to revive dead 6V, 12V batteries that won't charge. I drive a 2011 Kia Optima (LX, forgive me. The Move is physically very big (at 24 centimetres in height, it's one of the tallest portable speakers on the market, a shade taller, even, than UE’s huge Megablast). допускаемая нагрузка additional charge — спец. Learn more Updated October 8, 2020 We tested 10 new. I ran powercfg /batteryreport and got the following Question Laptop wont charge. Charge-n-go with BLAST, MEGABLAST, BOOM 3 and MEGABOOM 3 speakers. Taking the Weather Door's place at the bottom of the speaker is a built-in connection for the Power Up charging dock (sold separately for £35) that launched with the Megablast series, offering. i used my phone for full day until it hit 0 % and auto turn off, after i got home i tried to charge but it Best answer: Leave it off and on charge, it can take a while before it hits 1% don't turn it on until it. If the Megablast is if too pricey, the similarly IP67-protected Altec Lansing VersA ($129. Therefore, funds charge investors annual fund management fees. Freie Auswahl aus Plattensammlung "Build your own Collection" 150 Euro Gutschein Der Höchstbietende wählt für die oben genannte Summe aus der Liste.